Question MYSTERY! 4k Vid Plays on Intel HD4600, HD630 but not on HD530?

dovedescent7

Distinguished
Jun 3, 2011
87
0
18,630
0
Just bought barebones Dell Optiplex 7450 1080p AIO and testing Video
Installed Windows 10 2004 with all new drivers and updates.
i5-6500, 4gb DDR4, wd 250gb nvme ssd, only intel HD 530 graphics.

My test file is an HDR UHD 4k rip of Trolls World Tour I purchased, it's 12,800mb/s.

The file plays perfect on laptops with i7-4800mq (intel hd4600) + another with i7-7700hq (intel hd 630) + one with i5-8265u (intel hd 620)+ a Desktop with a GTX 1050ti. All with 1080p screens!

But this file will absolutely NOT play on this new optiplex with HD 530 graphics / i5-6500.
I've installed the HEVC codec.
I've even connected to 4k external tv via dp 1.2 to hdmi adapter and it performs terribly.
Also tried vlc

Why will this one file play perfect in Windows 10 Movies & TV app with ALL these different cpu's but NOT on this system? Is the 4gb ram causing it?

Any ideas? This doesn't make sense.




Media infos of 2 video test files i've tested that work everywhere else but this new machine(optiplex 7450 -i5-6500)


General
Unique ID : 84784686841455983265729947207175160040 (0x3FC8EFCCF8582F78D3F8B9E7025AC0E8)
MOVIES\Trolls.World.Tour.2020.HDR10Plus.INTERNAL.2160p.mkv
Format : Matroska
Format version : Version 4
File size : 10.6 GiB
Duration : 1 h 30 min
Overall bit rate mode : Variable
Overall bit rate : 16.7 Mb/s
Writing application : mkvmerge v48.0.0 ('Fortress Around Your Heart') 64-bit
Writing library : libebml v1.4.0 + libmatroska v1.6.0

Video
ID : 1
Format : HEVC
Format/Info : High Efficiency Video Coding
Format profile : Main 10@L5.1@High
HDR format : SMPTE ST 2094 App 4, Version 1, HDR10+ Profile B compatible
Codec ID : V_MPEGH/ISO/HEVC
Duration : 1 h 30 min
Bit rate : 12.8 Mb/s
Width : 3 840 pixels
Height : 2 160 pixels
Display aspect ratio : 16:9
Frame rate mode : Constant
Frame rate : 23.976 (24000/1001) FPS
Color space : YUV
Chroma subsampling : 4:2:0 (Type 2)
Bit depth : 10 bits
Bits/(Pixel*Frame) : 0.065
Stream size : 8.14 GiB (77%)
Writing library : x265
Default : Yes
Forced : No
Color range : Limited
Color primaries : BT.2020
Transfer characteristics : PQ
Matrix coefficients : BT.2020 non-constant
Mastering display color primaries : Display P3
Mastering display luminance : min: 0.0010 cd/m2, max: 1000 cd/m2
Maximum Content Light Level : 1000 cd/m2
Maximum Frame-Average Light Level : 462 cd/m2

Audio #1
ID : 2
Format : MLP FBA 16-ch
Format/Info : Meridian Lossless Packing FBA with 16-channel presentation
Commercial name : Dolby TrueHD with Dolby Atmos
Codec ID : A_TRUEHD
Duration : 1 h 30 min
Bit rate mode : Variable
Bit rate : 3 173 kb/s
Maximum bit rate : 5 049 kb/s
Channel(s) : 8 channels
Channel layout : L R C LFE Ls Rs Lb Rb
Sampling rate : 48.0 kHz
Frame rate : 1 200.000 FPS (40 SPF)
Compression mode : Lossless
Stream size : 2.01 GiB (19%)
Language : English
Default : Yes
Forced : No
Number of dynamic objects : 11
Bed channel count : 1 channel
Bed channel configuration : LFE

Audio #2
ID : 3
Format : AC-3
Format/Info : Audio Coding 3
Commercial name : Dolby Digital
Codec ID : A_AC3
Duration : 1 h 30 min
Bit rate mode : Constant
Bit rate : 448 kb/s
Channel(s) : 6 channels
Channel layout : L R C LFE Ls Rs
Sampling rate : 48.0 kHz
Frame rate : 31.250 FPS (1536 SPF)
Compression mode : Lossy
Stream size : 291 MiB (3%)
Language : English
Service kind : Complete Main
Default : No
Forced : No

Audio #3
ID : 4
Format : AAC LC
Format/Info : Advanced Audio Codec Low Complexity
Codec ID : A_AAC-2
Duration : 1 h 30 min
Bit rate : 102 kb/s
Channel(s) : 2 channels
Channel layout : L R
Sampling rate : 48.0 kHz
Frame rate : 46.875 FPS (1024 SPF)
Compression mode : Lossy
Delay relative to video : 14 ms
Stream size : 66.3 MiB (1%)
Title : Commentary with David Smith, Walt Dohrn, and Gina Shay
Language : English
Default : No
Forced : No

Text #1
ID : 5
Format : PGS
Muxing mode : zlib
Codec ID : S_HDMV/PGS
Codec ID/Info : Picture based subtitle format used on BDs/HD-DVDs
Duration : 1 h 24 min
Bit rate : 52.3 kb/s
Count of elements : 3034
Stream size : 31.5 MiB (0%)
Title : SDH
Language : English
Default : No
Forced : No

Text #2
ID : 6
Format : PGS
Muxing mode : zlib
Codec ID : S_HDMV/PGS
Codec ID/Info : Picture based subtitle format used on BDs/HD-DVDs
Duration : 1 h 29 min
Bit rate : 42.4 kb/s
Count of elements : 2772
Stream size : 27.3 MiB (0%)
Language : Spanish
Default : No
Forced : No

Text #3
ID : 7
Format : PGS
Muxing mode : zlib
Codec ID : S_HDMV/PGS
Codec ID/Info : Picture based subtitle format used on BDs/HD-DVDs
Duration : 1 h 29 min
Bit rate : 46.6 kb/s
Count of elements : 2712
Stream size : 30.0 MiB (0%)
Language : French
Default : No
Forced : No






Second one


General
Complete name :Zootopia 2016 2160p.UHD.BluRay.mkv
Format : Matroska
Format version : Version 4
File size : 11.6 GiB
Duration : 1 h 48 min
Overall bit rate mode : Variable
Overall bit rate : 15.3 Mb/s
Movie name : Zootopia
Encoded date : UTC 2019-10-25 13:21:46
Writing application : mkvmerge v38.0.0 ('The Silent Type') 64-bit
Writing library : libebml v1.3.9 + libmatroska v1.5.2

Video
ID : 1
Format : HEVC
Format/Info : High Efficiency Video Coding
Format profile : Main 10@L5.1@High
HDR format : SMPTE ST 2086, HDR10 compatible
Codec ID : V_MPEGH/ISO/HEVC
Duration : 1 h 48 min
Bit rate : 7 406 kb/s
Width : 3 840 pixels
Height : 1 608 pixels
Display aspect ratio : 2.40:1
Frame rate mode : Constant
Frame rate : 23.976 (24000/1001) FPS
Color space : YUV
Chroma subsampling : 4:2:0 (Type 2)
Bit depth : 10 bits
Bits/(Pixel*Frame) : 0.050
Stream size : 5.61 GiB (48%)
Writing library : x265d
Default : Yes
Forced : No
Color range : Limited
Color primaries : BT.2020
Transfer characteristics : PQ
Matrix coefficients : BT.2020 non-constant
Mastering display color primaries : Display P3
Mastering display luminance : min: 0.0050 cd/m2, max: 4000 cd/m2

Audio #1
ID : 2
Format : MLP FBA 16-ch
Format/Info : Meridian Lossless Packing FBA with 16-channel presentation
Commercial name : Dolby TrueHD with Dolby Atmos
Codec ID : A_TRUEHD
Duration : 1 h 48 min
Bit rate mode : Variable
Bit rate : 7 170 kb/s
Maximum bit rate : 9 216 kb/s
Channel(s) : 8 channels
Channel layout : L R C LFE Ls Rs Lb Rb
Sampling rate : 48.0 kHz
Frame rate : 1 200.000 FPS (40 SPF)
Compression mode : Lossless
Stream size : 5.44 GiB (47%)
Language : English
Default : Yes
Forced : No
Number of dynamic objects : 13
Bed channel count : 1 channel
Bed channel configuration : LFE

Audio #2
ID : 3
Format : AC-3
Format/Info : Audio Coding 3
Commercial name : Dolby Digital
Codec ID : A_AC3
Duration : 1 h 48 min
Bit rate mode : Constant
Bit rate : 640 kb/s
Channel(s) : 6 channels
Channel layout : L R C LFE Ls Rs
Sampling rate : 48.0 kHz
Frame rate : 31.250 FPS (1536 SPF)
Compression mode : Lossy
Stream size : 497 MiB (4%)
Language : English
Service kind : Complete Main
Default : No
Forced : No

Text #1
ID : 4
Format : PGS
Muxing mode : zlib
Codec ID : S_HDMV/PGS
Codec ID/Info : Picture based subtitle format used on BDs/HD-DVDs
Duration : 1 h 46 min
Bit rate : 52.7 kb/s
Count of elements : 4592
Stream size : 40.3 MiB (0%)
Title : SDH
Language : English
Default : No
Forced : No

Text #2
ID : 5
Format : PGS
Muxing mode : zlib
Codec ID : S_HDMV/PGS
Codec ID/Info : Picture based subtitle format used on BDs/HD-DVDs
Duration : 1 h 39 min
Bit rate : 47.6 kb/s
Count of elements : 3502
Stream size : 33.9 MiB (0%)
Language : French
Default : No
Forced : No

Text #3
ID : 6
Format : PGS
Muxing mode : zlib
Codec ID : S_HDMV/PGS
Codec ID/Info : Picture based subtitle format used on BDs/HD-DVDs
Duration : 1 h 38 min
Bit rate : 46.5 kb/s
Count of elements : 3452
Stream size : 32.9 MiB (0%)
Language : Spanish
Default : No
Forced : No

Text #4
ID : 7
Format : PGS
Muxing mode : zlib
Codec ID : S_HDMV/PGS
Codec ID/Info : Picture based subtitle format used on BDs/HD-DVDs
Duration : 1 h 47 min
Bit rate : 31.3 kb/s
Count of elements : 3154
Stream size : 24.0 MiB (0%)
Language : Japanese
Default : No
Forced : No
 
Last edited:

ASK THE COMMUNITY

TRENDING THREADS